Tenet 2020 HC KAT free movie torrent

Av check
Download torrent

Tenet 2020 HC

Director: Christopher Nolan

Writer: Christopher Nolan

Celebrities: John David Washington, Robert Pattinson, Elizabeth Debicki

Plot / story:

Armed with one word, Tenet, and fighting for the survival of the world, the protagonist travels through the dark world of international espionage on a mission that will unfold beyond real time.

Observations:

Downloaded print has been removed, AR reset, reduced flicker and noise, recalibrated colors, brightness, contrast, blurry site logo, sharp image on all text, 3 samples

general

Name and surname:

Format: AVI

Format / information: interlaced audio and video

File size: GiB

Duration: 2 hours 24 min

Total bit rate: 1684 kbps

Subtitles: sometimes encoded in Korean.
Another Round 2020 KAT download free movie torrent

Examples: (3)

Video

ID: 0

Format: MPEG-4 Visual

Format profile: advanced

Format setting, BVOP: 2

Format setting, QPel: No.

Format setting, GMC: no bend points

Format setting, array: standard ()

Codec ID: XVID

Codec ID / Tip: XviD

Duration: 2 hours 24 min

Bit rate: 1,542 kbps

Width: 720 pixels

Height: 256 pixels

Screen aspect ratio:

Frame rate: (30000/1001) fps

Color space: YUV

Chroma subsampling: 4: 2: 0

Bit depth: 8 bit

Scan Type: Progressive

Compression mode: lossy

Bits / (pixel * frame):

Stream size: GiB (92%)

Writing Library: XviD 64

Audio

ID: 1

Format: MPEG audio

Format version: version 1

Format profile: low 3

Codec ID: 55

Codec ID / Track: MP3

Duration: 2 hours 24 min

Bit rate mode: constant

Bit rate: 128 kbps

Channels: 2 channels

Sampling frequency: kHz

Compression mode: lossy

Stream size: 132 MiB (8%)

Alignment: aligned for interlacing

Interlaced, duration: 24 ms (video frame)

Screenshots:

Keep sowing as long as possible.
http://larryandreaslicenseagency.com/2021/04/09/minari-2020-720p-tpb-download-free-movie-torrent/

Or at least 1: 1

Enjoy Peeps..

Download BitTorrent

Torrent vote 11 4

  1. Tenet 2020 HC 1080p HDRip AAC download torrent

Leave a Comment

Your email address will not be published. Required fields are marked *