The Gentlemen 2019 BRRip AC3 XViD hd movie torrent download

Av check
Download torrent

The Gentlemen 2019

An American immigrant is trying to sell his highly profitable marijuana empire in London, inciting conspiracies, schemes, bribery and blackmail to steal his domain from his hands.
Director:
Guy Ritchie, writer:
Guy Ritchie (story about), John Atkinson (story about) A talented American graduate from Oxford, with his unique skills and audacity, he creates an empire of marijuana that exploits the traits of poor British aristocrats. However, when he tries to sell his empire to an American billionaire, a chain of events takes place that includes blackmail, deception, chaos and murders among street thugs, Russian oligarchs, triad gangsters and gutter journalists.

Directed by Guy Ritchie

Authors: Guy Ritchie (screenplay), Guy Ritchie (story)

Stars: Matthew McConaughey, Charlie Hunnam, Michelle Dockery

Action / story:

An American immigrant is trying to sell his highly profitable marijuana empire in London, inciting conspiracies, schemes, bribery and blackmail to steal his domain from his hands.

In general

Full name:

Format: AVI

Format / Information: Audio Video Interleave

File size: 938 MiB

Duration: 1 53 min

Total transfer speed: 1,154 kbps

Subtitle: (HI)

Video

ID: 0

Format: MPEG-4 Visual

Format profile: extended

Format settings, BVOP: 2

Format settings, QPel: No.

Format settings, GMC: no warp points

Format settings, matrix: Standard ()

Codec ID: XVID

Codec ID / Tip: XviD

Duration: 1 53 min

Download speed: 1,013 kbps

Width: 720 pixels

Height: 304 pixels

Screen aspect ratio: 1

Frame rate: (24000/1001) FPS

Color space: YUV

Chromium subsampling: 4: 2: 0

Bit depth: 8 bits

Scan type: progressive

Compression mode: with loss

Bits / (Pixel * frame):

Stream size: 824 MiB (88%)

Writing Library: XviD 64

Audio

ID: 1

Format: MPEG audio

Format version: Version 1

Format profile: level 3

Codec ID: 55

Codec ID / Tip: MP3

Duration: 1 53 min

Baud rate mode: Constant

Upload speed: 128 kbps

Channel (s): 2 channels

Sampling rate: kHz

Compression mode: with loss

Stream size: 104 MiB (11%)

Alignment: aligned in the nest

Interleaving, duration: 24 ms (video frame)

Screenshots:

Please sow as much as possible

Or at least 1: 1

Enjoy the look

Download BitTorrent

Torrent vote 34 3

  1. The Gentlemen 2019 FastDL download torrent

Leave a Comment

Your email address will not be published. Required fields are marked *